Skip to main content

Indecision Live at Valentine Museum on 2008-02-02




01. Dear Prudence
02. Little Black Cat
03. Just A Little Bit
04. Foolish Pride > Samba
05. What Do You Do?->
06. Instant Armadillo Blues
07. GDTRFB*
08. setbreak
09. Big Bright Light
10. Willie And The Handjive
11. Marcus Lane
12. The Bu
13. The Strain
14. Spinning
15. Humanoid Boogie
16. High Steppin
17. Guilty Again
18. Hey Pocky Way
19. Take It All In


Collection Indecision
Band/Artist Indecision
Venue Valentine Museum
Location Richmond VA

Source Soundboard + Onstage MG 200's->Onyx-1220 ->SD 722 @ 24/96
Lineage Matrix > WAV > FLAC
Taped by Keith Sproat /Team Richmond
Transferred by Mark Lynn

Notes

Indecision
February 2, 2008
Valentine Museum
Richmond,VA


Set 1 cd # 1 (71:46.41)
01. Dear Prudence
02. Little Black Cat
03. Just A Little Bit
04. Foolish Pride > Samba
05. What Do You Do?->
06. Instant Armadillo Blues
07. GDTRFB*
08. setbreak

Set 2 cd # 2 (77:17.09)
09. Big Bright Light
10. Willie And The Handjive
11. Marcus Lane
12. The Bu
13. The Strain
14. Spinning
15. Humanoid Boogie
16. High Steppin
17. Guilty Again
18. Hey Pocky Way
19. Take It All In

*w/John Leedes on Dave's guitar

Soundboard + Onstage MG 200's->Onyx-1220 ->SD 722 @ 24/96.Team Richmond Matrix by Keith Sproat. Compiled and tracked by Mark Lynn(mark@ninebullets.org) on the morning after. Good God.


shntool results:
length expanded size cdr WAVE problems filename
10:50.34 114740012 --- -- ---xx Indecision2008-02-02d1t01.flac
6:37.21 70080236 --- -- ---xx Indecision2008-02-02d1t02.flac
10:15.59 108624812 --- -- ---xx Indecision2008-02-02d1t03.flac
14:05.56 149189756 --- -- ---xx Indecision2008-02-02d1t04.flac
10:35.63 112162220 --- -- ---xx Indecision2008-02-02d1t05.flac
4:04.35 43123964 --- -- ---xx Indecision2008-02-02d1t06.flac
13:21.39 141388172 --- -- ---xx Indecision2008-02-02d1t07.flac
1:55.34 20366012 --- -- ---xx Indecision2008-02-02d1t08.flac
8:28.27 89674748 --- -- ---xx Indecision2008-02-02d2t01.flac
6:14.53 66098300 --- -- ---xx Indecision2008-02-02d2t02.flac
5:38.66 59778476 --- -- ---xx Indecision2008-02-02d2t03.flac
8:11.15 86647724 --- -- ---xx Indecision2008-02-02d2t04.flac
3:53.34 41181212 --- -- ---xx Indecision2008-02-02d2t05.flac
8:18.24 87903692 --- -- ---xx Indecision2008-02-02d2t06.flac
4:59.58 52880060 --- -- ---xx Indecision2008-02-02d2t07.flac
10:20.18 109410380 --- -- ---xx Indecision2008-02-02d2t08.flac
6:13.42 65896028 --- -- ---xx Indecision2008-02-02d2t09.flac
7:33.67 80066828 --- -- ---xx Indecision2008-02-02d2t10.flac
7:24.55 78451004 --- -- ---xx Indecision2008-02-02d2t11.flac
149:03.50 1577663636 B (totals for 19 files, 0.5372 overall compression ratio)

Reviews

Reviewer: morst - - February 14, 2008
Subject: Great show, nice tape! Happy Birthday!
WOOHOO! Fresh Indi!!!

Thanks to Mark, Keith, Craig, the band, and of course ARCHIVE.org staff!!!
DOWNLOAD OPTIONS
In Collection
Indecision
In Collection
Live Music Archive
Uploaded by
morst
on 2/12/2008
Views
3,189
Favorites
2
Reviews
1
PEOPLE ALSO FOUND
Indecision
by Indecision
174
2
0
Source: Matrix: B&K4022(ortf) > Sonosax[35%] + sbd[65%] > 744T
Indecision
by Indecision
543
2
0
Source: Matrix: B&K4011 (on stage)>V2 + sbd > Onyx-1220 > 744T(4 channel line in)(24/48)
Indecision
by Indecision
922
2
0
Source: Matrix: B&K4022(ortf) > Sonosax[75%] + sbd[25%] > 744T
Indecision
by Indecision
1,850
1
2
( 2 reviews )
Source: Peluso CEMC-6/CK4(XY 90ยบ) > E.A.A. PSP-2 > Oade ACM Tascam HD-P2 @ 24/96
Indecision
by Indecision
766
1
1
( 1 reviews )
Source: SBD + Audience Matrix
Indecision
by Indecision
219
2
0
Source: Matrix: B&K4011 > V2[50%] + sbd[50%] > 744T(24/96)
Indecision
by Indecision
290
2
0
Source: sbd > 744T
Indecision
by Indecision
845
2
0
Source: sbd > 744T
Indecision
by Indecision
2,951
1
2
( 2 reviews )
Source: SBD > cassette (masters) > DAT (master) > CDR (masters)
Indecision
by Indecision
547
2
0
Source: SBD>SBM-1>PMD670(16/48)